Go Back Free Porn & Adult Videos Forum > Pornstars/Adult and Teen Models (PATM) > PATM High Definition Videos

Follow Planet Suzy Forum on Twitter
Best Porn Sites FAQ Mark Forums Read
Notices

PATM High Definition Videos HD videos (minimum 1280 x 720).
Arranged by actress/model.

Thread Tools
Old 24th October 2013, 15:49

Addicted

Join Date: Aug 2013
Posts: 211
Thanks: 29
Thanked 795 Times in 181 Posts
userjog222 Is Damn Gooduserjog222 Is Damn Gooduserjog222 Is Damn Gooduserjog222 Is Damn Gooduserjog222 Is Damn Gooduserjog222 Is Damn Gooduserjog222 Is Damn Gooduserjog222 Is Damn Gooduserjog222 Is Damn Gooduserjog222 Is Damn Gooduserjog222 Is Damn Good
Smile Destiny Dream / Destiny Dreams / Destiny DreamXXX / Destiny Dreamsxxx

Destiny Dream / Destiny Dreams / Destiny DreamXXX / Destiny Dreamsxxx



Performer: AKA Destiny Dreams, Destiny DreamXXX, Destiny Dreamsxxx
Birthday: No data
Astrology: No data
Birthplace: No data
Years Active: 2011-2013
Ethnicity: Black
Nationality/Heritage: No data
Hair Color: Blond
Measurements: No data
Height: No data
Weight: No data
Tattoos: Lower back
Non-Ear Piercings: No data

Code:
http://iafd.com/person.rme/perfid=DestinyDream/gender=f/destiny-dream.htm

----------------------------------------------------------------------
Destiny Dream - Вlаck Amateur Τryouts 2



Download:
http://depositfiles.com/files/zv8a787gk
http://depositfiles.com/files/nxwm2hu0w

Media Info:

Format : MPEG-4
Format profile : Base Media
Codec ID : isom
File size : 1.69 GiB
Duration : 31mn 36s
Overall bit rate mode : Variable
Overall bit rate : 7 634 Kbps
Encoded date : UTC 2011-02-15 06:53:22
Tagged date : UTC 2011-02-15 06:53:22
Writing application : Lavf52.62.0
Comment : FlixEngineLinux_8.0.17.1

Video
ID : 1
Format : AVC
Format/Info : Advanced Video Codec
Format profile : Baseline@L4.0
Format settings, CABAC : No
Format settings, ReFrames : 1 frame
Format settings, GOP : N=1
Codec ID : avc1
Codec ID/Info : Advanced Video Coding
Duration : 31mn 35s
Bit rate : 7 501 Kbps
Width : 1 920 pixels
Height : 1 080 pixels
Display aspect ratio : 16:9
Frame rate mode : Variable
Frame rate : 29.970 fps
Minimum frame rate : 29.412 fps
Maximum frame rate : 30.303 fps
Color space : YUV
Chroma subsampling : 4:2:0
Bit depth : 8 bits
Scan type : Progressive
Bits/(Pixel*Frame) : 0.121
Stream size : 1.66 GiB (98%)
Encoded date : UTC 2011-02-15 06:53:22
Tagged date : UTC 2011-02-15 06:53:22

Audio
ID : 2
Format : AAC
Format/Info : Advanced Audio Codec
Format profile : LC
Codec ID : 40
Duration : 31mn 36s
Bit rate mode : Variable
Bit rate : 128 Kbps
Channel(s) : 2 channels
Channel positions : Front: L R
Sampling rate : 48.0 KHz
Compression mode : Lossy
Stream size : 28.9 MiB (2%)
Encoded date : UTC 2011-02-15 06:53:22
Tagged date : UTC 2011-02-15 06:53:22

Checksum:

MD5: 7e72d636029f2192204bce094c523387
SHA-1: 3112e12125e83a13807c7e9020118f2887bcf5f0
Last edited by userjog222; 30th October 2013 at 19:32. Reason: removed link
userjog222 is offline
The Following 3 Users Say Thank You to userjog222 For This Useful Post:

Thread Tools

Posting Rules
You may not post new threads
You may not post replies
You may not post attachments
You may not edit your posts

BB code is On
Smilies are On
[IMG] code is On
HTML code is Off

Forum Jump


All times are GMT +1. The time now is 17:20.




vBulletin Optimisation provided by vB Optimise (Pro) - vBulletin Mods & Addons Copyright © 2017 DragonByte Technologies Ltd.
(c) Free Porn

Online free porn at mobile phone


cache:VjQ7xyUs4MEJ:artnou.ru/showthread.php?s=ecc07769a46e3775d6af4f7ab870bb89&goto=newpost&t=518361 ryann shieldsnewgrounds hentai gamesnicole sheridan analangie venusbecky briellegina lisa lohfink nudemadison ivy planetsuzyjanet jackmeAngel Deluca foot bath pussy massage rodney moore full porn video downloadkimmy lee pornCoralie Gengenbach pornbree olson bangbusamy azurratisha campbell porndaniella monet ass  Rachel RoXXX, Sienna West  larkin love povJULIE STYLEZ BIG BOOTY MP4charmane star free porn download sitesjulia vins nudeclaudia antonellisofia santizoe morrellKendall Karson Right Amount of Wrong Scene M0NST£RS 0F C0CKpornstar cumisha jonesKeta topuria pornoemma rigby nudesweet krissy the magic wand downloaddownload video clanddi jinkcegokristy althaus nudejayden jaymes planetsuzyaudrey bitoni mark ashley threadshea summerskristine madisonarakis1967Samantha Ryan, Joey Brass mp4 download estella warren pornlucy wilde pornstarartnou.ru kalina ryu patm page 7deena danielssissy hypno trainingkelsi monroe artnou.ru patm standard videosplanetsuzy org Bae Doonaryann shieldsalina li planetsuzyfemdom 251 moblie phonescache:ZNwzxN90kP8J:artnou.ru/showthread.php?t=783572&highlight=Tomi+Taylor cache:-D38TktWK4kJ:artnou.ru/showthread.php?s=0ff1ec8c8878fb66ea23273ce0a5f193&t=327749&highlight=Charlee+Chase&page=6 yeni rivera pornocoralie gengenbach video free downloadlana croftnaomi st clairekaterina hovorkovaartnou.ru madelyn monroe interracialblowbanghannah black pornterri garr porn star lookalikeArianna Sin porn photowe are fooling my husband rebecca ñovesnooki pornlexi belle iafdlucy griffiths nudeart porn my-bfbo-bonnie rottenshyla stylez galleriesrio hamasakiTessa Thompson pornmonika benjartara tainton free videosstacey havoc pornporn ru§ianariley reid and shyla jennings i'll show you mine if you show yoursroxy rebel nudeDemmy Blaze porno forumaria giovanni galleriesciara bugatti